contador gratuito Las chicas del cable (TV Series) Temporada 1 [2017][MICROHD WEB-DL 720p][MP4][Castellano DD + 5.1][08/08][407 MB][KATFILE] - Fiuxy - Todos la Hacemos!

Las chicas del cable (TV Series) Temporada 1 [2017][MICROHD WEB-DL 720p][MP4][Castellano DD + 5.1][08/08][407 MB][KATFILE]


juandavid

Experto Fiuxer
7 Noviembre 2019
188
25
28


Sinopsis

Madrid, año 1928. Las operadoras de la recién nacida Telefónica viven sus romances y envidias dentro de una empresa moderna, reflejo del cambio social de la época. Lidia, Marga, Ángeles y Carlota comienzan a trabajar como telefonistas en el edificio más moderno de toda la ciudad. Para ellas empieza la lucha por una independencia que tanto su entorno como la sociedad de entonces les niega. Su amistad será clave para conseguir sus sueños y juntas irán descubriendo lo que significa la verdadera libertad.

CAPTURAS



TRAILER

Debes registrarte para ver los vídeos, ¿a qué esperas? ¡es gratis!

Debes registrarte para ver los vídeos, ¿a qué esperas? ¡es gratis!

Estreno 5ª temporada (T5) y última en Netflix: 14 febrero 2020

Premios

2018: Premios Platino: Mejor actriz en teleserie (Blanca Suárez)
2017: Premios Fénix: Nominada a mejor serie drama
2017: Premios Feroz: Nominada a Mejor actriz de reparto serie TV (Ana Polvorosa)

DATOS TECNICOS

Título original: Las chicas del cable (TV Series)
Año: 2017
Duración: 54 Minutos
País: España
Director: Ramón Campos (Creator), Teresa Fernández-Valdés (Creator), Antonio Hernández, Roger Gual, Carlos Sedes, David Pinillos
Guión: Ramón Campos, Teresa Fernández-Valdés, Gema R. Neira, María José Rustarazo, Michael Sorich, Carlos Portela, Jaime Vaca, Almudena Ocaña, Estíbaliz Burgaleta, Flora González Villanueva, Paula Fernández, Alberto Grondona
Fotografía: Daniel Sosa, Jacobo Martínez, Alfonso Postigo, Óscar Durán
Reparto: Blanca Suárez, Maggie Civantos, Ana Fernández, Nadia de Santiago, Ana Polvorosa, Yon González, Martiño Rivas, Nico Romero, Borja Luna, Sergio Mur, Concha Velasco, Iria del Río, Ernesto Alterio, Andrea Carballo, Antonio Velázquez, Tina Sáinz, Kiti Manver, Ángela Cremonte, Luis Fernández, María Garralón, Simón Andreu, Luisa Gavasa, Agnès Llobet, Iñigo Salinero, Joan Crosas, Carlos Kaniowsky, Miguel Lago Casal, Pepe Ocio, Gaizka Ugarte, Anna Moliner, Carlota Baró, Patricia Peñalver, Itzan Escamilla, Isabel Naveira, Mercedes del Castillo, Iván Marcos, Javier Laorden, Rebeca Alfayat, Lolo Herrero, Raquel López, Juan Rueda
Género: Serie de TV. Drama. Comedia | Años 20. Amistad
Productora: Bambú Producciones / Netflix España. Distribuida por Netflix

INFO RIPEO

Título original: Las chicas del cable (TV Series)
Temporada: 1
Capítulos: 08
Calidad: HD 720p
Resolución: 1280 x 720
Idioma: Español Castellano
Video: MPEG4 Video (H264) 1280x720 25fps 792kbps [V: h264 high L3.1, yuv420p, 1280x720, 792 kb/s]
Frame rate: 25
Audio: DD+ 48000Hz 6ch 256kbps [A: SoundHandler [Spanish] (eac3, 48000 Hz, 5.1, 256 kb/s)]
Formato: MP4
Peso aproximado por capitulo: 407 MB
Tamaño Total: 3,07 GB


INFO-ARCHIVO


General
Complete name : C:\Users\lokit\Videos\Las chicas del cable 720p\[T1.Ep1] Las chicas del cable - Capítulo 1 - Los sueños.mp4
Format : MPEG-4
Format profile : Base Media
Codec ID : isom (isom/iso2/avc1/mp41)
File size : 407 MiB
Duration : 54 min 4 s
Overall bit rate : 1 054 kb/s
Writing application : Lavf58.33.100

Video
ID : 1
Format : AVC
Format/Info : Advanced Video Codec
Format profile : [email protected]
Format settings, CABAC : Yes
Format settings, RefFrames : 3 frames
Codec ID : avc1
Codec ID/Info : Advanced Video Coding
Duration : 54 min 4 s
Source duration : 3 min 57 s
Bit rate : 793 kb/s
Width : 1 280 pixels
Height : 720 pixels
Display aspect ratio : 16:9
Frame rate mode : Constant
Frame rate : 25.000 FPS
Color space : YUV
Chroma subsampling : 4:2:0
Bit depth : 8 bits
Scan type : Progressive
Bits/(Pixel*Frame) : 0.034
Stream size : 307 MiB (75%)
Source stream size : 307 MiB (75%)
mdhd_Duration : 3244320

Audio
ID : 2
Format : E-AC-3
Format/Info : Enhanced Audio Coding 3
Format settings, Endianness : Big
Codec ID : ec-3
Duration : 54 min 4 s
Bit rate mode : Constant
Bit rate : 256 kb/s
Channel(s) : 6 channels
Channel positions : Front: L C R, Side: L R, LFE
Sampling rate : 48.0 kHz
Frame rate : 187.500 FPS (256 SPF)
Bit depth : 16 bits
Compression mode : Lossy
Stream size : 99.0 MiB (24%)
Language : Spanish
Service kind : Complete Main
Default : Yes
Alternate group : 1

DESCARGA - KATFILE

Las chicas del cable 720p 01-02.rar 873.6 MB



Las chicas del cable 720p 03-04.rar 871.7 MB



Las chicas del cable 720p 05-06.rar 777.7 MB



Las chicas del cable 720p 07-08.rar 698.3 MB