contador gratuito Las películas que vimos (Serie de TV) Temporada 1 [2019][MICROHD WEB-DL 1080p][MP4][Castellano DD + 5.1][04/04][1,32 GB][UPTOBOX] - Fiuxy - Todos la Hacemos!

Las películas que vimos (Serie de TV) Temporada 1 [2019][MICROHD WEB-DL 1080p][MP4][Castellano DD + 5.1][04/04][1,32 GB][UPTOBOX]


juandavid

Experto Fiuxer
7 Noviembre 2019
188
25
28


Sinopsis

Las personas detrás de las películas inolvidables que marcaron un antes y un después en el mundo del cine, cuentan todos los secretos de la producción.

CAPTURAS



DATOS TECNICOS

Título original: The Movies That Made Us (TV Series)
Año: 2019
Duración: 51 Minutos
País: Estados Unidos
Director: Brian Volk-Weiss
Guión: Brian Volk-Weiss
Fotografía: Stefano Ferrari
Reparto: Documentary
Género: Serie de TV. Documental | Documental sobre cine
Productora: Nacelle Company. Distribuida por Netflix

INFO RIPEO

Título original: The Movies That Made Us (TV Series)
Temporada: 1
Capítulos: 04
Calidad: HD 1080p
Resolución: 1920 x 1080
Idioma: Español Castellano
Video: MPEG4 Video (H264) 1920x1080 23.976fps 3390kbps [V: h264 high L4.0, yuv420p, 1920x1080, 3390 kb/s]
Frame rate: 23.976fps
Audio: DD+ 48000Hz 6ch 256kbps [A: SoundHandler [Spanish] (eac3, 48000 Hz, 5.1, 256 kb/s)]
Formato: MP4
Peso aproximado por capitulo: 1,32 GB
Tamaño Total: 4,45 GB


INFO-ARCHIVO

General
Complete name : C:\Users\lokit\Videos\Las películas que nos formaron 1080\[T1.Ep1] Las películas que nos formaron - Baile caliente.mp4
Format : MPEG-4
Format profile : Base Media
Codec ID : isom (isom/iso2/avc1/mp41)
File size : 1.32 GiB
Duration : 51 min 54 s
Overall bit rate : 3 652 kb/s
Writing application : Lavf58.33.100

Video
ID : 1
Format : AVC
Format/Info : Advanced Video Codec
Format profile : [email protected]
Format settings, CABAC : Yes
Format settings, RefFrames : 3 frames
Codec ID : avc1
Codec ID/Info : Advanced Video Coding
Duration : 51 min 54 s
Bit rate : 3 390 kb/s
Width : 1 920 pixels
Height : 1 080 pixels
Display aspect ratio : 16:9
Frame rate mode : Constant
Frame rate : 23.976 FPS
Color space : YUV
Chroma subsampling : 4:2:0
Bit depth : 8 bits
Scan type : Progressive
Bits/(Pixel*Frame) : 0.068
Stream size : 1.23 GiB (93%)

Audio
ID : 2
Format : E-AC-3
Format/Info : Enhanced Audio Coding 3
Format settings, Endianness : Big
Codec ID : ec-3
Duration : 51 min 54 s
Bit rate mode : Constant
Bit rate : 256 kb/s
Channel(s) : 6 channels
Channel positions : Front: L C R, Side: L R, LFE
Sampling rate : 48.0 kHz
Frame rate : 187.500 FPS (256 SPF)
Bit depth : 16 bits
Compression mode : Lossy
Stream size : 95.0 MiB (7%)
Language : Spanish
Service kind : Complete Main
Default : Yes
Alternate group : 1


Las películas que nos formaron 1080p 01-02.rar (2.38 GB)



Las películas que nos formaron 1080p 03-04.rar (2.06 GB)

 
  • Me gusta
Reactions: Teela