contador gratuito The Punisher Temporada 1 [2017][MICROHD 1080p][MKV][Castellano 5.1][13/13][930 MB][UPTOBOX] - Fiuxy - Todos la Hacemos!

The Punisher Temporada 1 [2017][MICROHD 1080p][MKV][Castellano 5.1][13/13][930 MB][UPTOBOX]

juandavid

Fiuxer
7 Noviembre 2019
38
5
8


Sinopsis

Serie de TV (2017-2019). 2 temporadas. 26 episodios. Frank Castle, conocido por las calles de Nueva York como 'el Castigador', busca venganza contra los responsables de la muerte de su familia y, por el camino, destapa una conspiración que va mucho más allá de su vendetta personal. Spin-off de la serie "Daredevil".

CAPTURAS



TRAILER

Debes registrarte para ver los vídeos, ¿a qué esperas? ¡es gratis!


DATOS TECNICOS

Título original: The Punisher Temporada 1 [2017][MICROHD 1080p][MKV][Castellano 5.1][13/13][930 MB][UPTOBOX]
Año: 2017
Duración: 60 Minutos
País: Estados Unidos
Director: Steve Lightfoot (Creator), Andy Goddard, Jeremy Webb, Dearbhla Walsh, Kevin Hooks, Stephen Surjik, Jim O'Hanlon, Jet Wilkinson, Tom Shankland, Antonio Campos, Marc Jobst, Kari Skogland, Jamie M. Dagg, Alex Garcia Lopez, Stephen T. Kay, Iain B. MacDonald, Meera Menon, Michael Offer, Stacie Passon, Salli Richardson-Whitfield
Guión: Steve Lightfoot, Ross Andru, Ken Kristensen, Angela LaManna, Dario Scardapane, Felicia D. Henderson, Christine Boylan, Bruce Marshall Romans, Michael Jones-Morales, Laura Jean Leal (Cómic: Gerry Conway, John Romita Sr.)
Fotografía: Petr Hlinomaz, William Coleman, Manuel Billeter, Francis Spieldenner
Música: Tyler Bates
Reparto: Jon Bernthal, Ben Barnes, Ebon Moss-Bachrach, Amber Rose Revah, Deborah Ann Woll, Daniel Webber, Jason R. Moore, Paul Schulze, Jaime Ray Newman, Michael Nathanson, Shohreh Aghdashloo, Mary Elizabeth Mastrantonio, Rob Morgan, Floriana Lima, Josh Stewart, Giorgia Whigham, Royce Johnson, Tony Plana, Kelli Barrett, Samuel Gómez, Corbin Bernsen, Annette O'Toole, Aidan Pierce Brennan, Nicolette Pierini, Todd Alan Crain, Teri Reeves, C. Thomas Howell, Allie McCulloch, Jeb Kreager, Alexa Davalos, Kevin Chapman, Rick Holmes, Geoffrey Cantor, Joe Holt, Tim Guinee, Manny Ureña, Michael Pemberton, Andrew Polk, Ilfenesh Hadera, Thomas G. Waites, Joseph D. Reitman, Dov Davidoff, René Ifrah, E.J. Carroll, Owen Burke, Adrian Alvarado, Kareem Savinon, Dikran Tulaine, Ilia Volok, Clancy Brown, Cecelia Antoinette, Pat Kiernan, Josh Caras, Keith Jardine, Tyler Elliot Burke, Jordyn DiNatale, Evan Johnson, Ludovic Coutaud
Género: Serie de TV. Acción | Cómic. Marvel Comics. Spin-off
Productora: Disney-ABC Domestic Television / Marvel Entertainment / Netflix / American Broadcasting Company (ABC) / Marvel Television / Walt Disney Television. Distribuida por Netflix


INFO RIPEO

Tamaño Total 9,02 GB
Peso aproximado por capitulo 930 MB
Formato MKV
Calidad HD 1080p
Lenguaje Principal Español Castellano AAC 5.1
Resolución 1920 x 1080
Duración 60 Minutos Aproximadamente
Temporada 1
Episodios 13 Completa

INFO-ARCHIVO

General
Unique ID : 201532496610276085392080291645025786482 (0x979DBF3B51A5255421B0422504719A72)
Complete name : C:\Users\lokit\Videos\The Punisher Temporada 1 [2017][MICROHD 1080p][MKV][Castellano 5.1][1313][930 MB][UPTOBOX]\01-Marvel - The Punisher - 3 a. m\01-Marvel - The Punisher - 3 a. m..mkv
Format : Matroska
Format version : Version 4 / Version 2
File size : 930 MiB
Duration : 51 min 23 s
Overall bit rate : 2 531 kb/s
Encoded date : UTC 2019-11-07 03:24:02
Writing application : mkvmerge v38.0.0 ('The Silent Type') 64-bit
Writing library : libebml v1.3.9 + libmatroska v1.5.2

Video
ID : 1
Format : AVC
Format/Info : Advanced Video Codec
Format profile : [email protected]
Format settings, CABAC : Yes
Format settings, RefFrames : 3 frames
Codec ID : V_MPEG4/ISO/AVC
Duration : 51 min 23 s
Bit rate : 2 337 kb/s
Width : 1 920 pixels
Height : 1 080 pixels
Display aspect ratio : 16:9
Frame rate mode : Constant
Frame rate : 23.976 (24000/1001) FPS
Color space : YUV
Chroma subsampling : 4:2:0
Bit depth : 8 bits
Scan type : Progressive
Bits/(Pixel*Frame) : 0.047
Stream size : 859 MiB (92%)
Default : Yes
Forced : No

Audio
ID : 2
Format : AAC
Format/Info : Advanced Audio Codec
Format profile : HE-AAC / LC
Codec ID : A_AAC
Duration : 51 min 23 s
Bit rate : 192 kb/s
Channel(s) : 6 channels
Channel positions : Front: L C R, Side: L R, LFE
Sampling rate : 48.0 kHz / 24.0 kHz
Frame rate : 23.438 FPS (1024 SPF)
Compression mode : Lossy
Delay relative to video : -83 ms
Stream size : 70.6 MiB (8%)
Language : Spanish
Default : Yes
Forced : No


DESCARGA - UPTOBOX