contador gratuito Troya Temporada 1 [2018][MICROHD 720p][MKV][Castellano 5.1][08/08][555 MB][UPTOBOX] - Fiuxy - Todos la Hacemos!

Troya Temporada 1 [2018][MICROHD 720p][MKV][Castellano 5.1][08/08][555 MB][UPTOBOX]

juandavid

Fiuxer
7 Noviembre 2019
38
5
8



Sinopsis

Miniserie de TV (2018). 8 episodios. Mientras busca a la mujer que Afrodita le prometió, el pastor Paris descubre su verdadera identidad y se enamora de Helena de Esparta. La guerra de Troya está servida.


CAPTURAS


TRAILER

Debes registrarte para ver los vídeos, ¿a qué esperas? ¡es gratis!

DATOS TECNICOS

Título original: Troya Temporada 1 [2018][MICROHD 720p][MKV][Castellano 5.1][08/08][555 MB][MEGA]
Año: 2018
Duración: 60 Minutos
País: Reino Unido
Director: David Farr (Creator), Owen Harris, Mark Brozel
Guión: Joe Barton, David Farr, Nancy Harris, Mika Watkins
Fotografía: Gustav Danielsson, Andrew McDonnell, Ruairi O'Brien
Música: Robin Coudert
Reparto: Louis Hunter, Bella Dayne, David Threlfall, Frances O'Connor, Tom Weston-Jones, Joseph Mawle, Chloe Pirrie, Johnny Harris, Hakeem Kae-Kazim, David Gyasi, Jonas Armstrong, Alfred Enoch, Chris Fisher, Aimee-Ffion Edwards, Lex King, Christiaan Schoombie, Alex Lanipekun, Jonathan Pienaar, Amy Louise Wilson, David Avery, Shamilla Miller, Inge Beckmann, Diarmaid Murtagh, Woody Norman, Thando Bulane-Hopa, Nina Milner, Grace Hogg-Robinson, Garth Breytenbach, Waldemar Schultz, Carl Beukes, Lemogang Tsipa, Guy de Lancey, Deon Williams, Peter Butler, Lise Slabber, Sharleen Dziire, Michael MacKenzie, Danny Keough
Género: Serie de TV. Acción. Drama | Antigua Grecia. Miniserie de TV
Productora: Coproducción Reino Unido-Estados Unidos-Sudáfrica-Australia; BBC. Distribuida por Netflix

INFO RIPEO

Título original: Troya
Temporada: 1
Capítulos: 08
Calidad: HD 720p
Resolución: 1280 x 720
Idioma: Español Castellano
Subtitulos: Español Castellano
Formato: MKV
Peso aproximado por capitulo: 555 MB
Tamaño Total: 3,64 GB

INFO-ARCHIVO

General
Unique ID : 319203239606358787985651887266262675417 (0xF0244EC8B9C2BA0C3026D09A56D3EFD9)
Complete name : C:\Users\lokit\Videos\Troya Temporada 1 [2018][MICROHD 720p][MKV][Castellano 5.1][1313][930 MB][MEGA]\01-Troya - La caída de una ciudad - Sangre negra\01-Troya - La caída de una ciudad - Sangre negra.mkv
Format : Matroska
Format version : Version 4 / Version 2
File size : 555 MiB
Duration : 1 h 0 min
Overall bit rate : 1 287 kb/s
Encoded date : UTC 2019-11-08 11:37:18
Writing application : mkvmerge v38.0.0 ('The Silent Type') 64-bit
Writing library : libebml v1.3.9 + libmatroska v1.5.2

Video
ID : 1
Format : AVC
Format/Info : Advanced Video Codec
Format profile : [email protected]
Format settings, CABAC : Yes
Format settings, RefFrames : 3 frames
Codec ID : V_MPEG4/ISO/AVC
Duration : 1 h 0 min
Bit rate : 1 093 kb/s
Width : 1 280 pixels
Height : 720 pixels
Display aspect ratio : 16:9
Frame rate mode : Constant
Frame rate : 25.000 FPS
Color space : YUV
Chroma subsampling : 4:2:0
Bit depth : 8 bits
Scan type : Progressive
Bits/(Pixel*Frame) : 0.047
Stream size : 472 MiB (85%)
Default : Yes
Forced : No

Audio
ID : 2
Format : E-AC-3
Format/Info : Enhanced Audio Coding 3
Format settings, Endianness : Big
Codec ID : A_EAC3
Duration : 1 h 0 min
Bit rate mode : Constant
Bit rate : 192 kb/s
Channel(s) : 6 channels
Channel positions : Front: L C R, Side: L R, LFE
Sampling rate : 48.0 kHz
Frame rate : 187.500 FPS (256 SPF)
Compression mode : Lossy
Delay relative to video : -80 ms
Stream size : 82.8 MiB (15%)
Language : Spanish
Service kind : Complete Main
Default : Yes
Forced : No


DESCARGA - UPTOBOX










 
  • Me gusta
Reactions: alies